Issuu on Google+

Login Fore ve r

Home

Help

Tags

Facebook

DMCA Policy Contact Us

Login

:::: Bollywood Zone

Bollywood Movies (Original Rips)

October 23, 2013, 01:16:01 PM

Register

File Hosting Service

ShareSpark.net

Register

Topics Index

Latest 50 Topics

Private ShoutBox

Donate Us

Jatt Boys Putt Jattan De (2013) DVDRip - XviD - 1CD - Esub - [DDR-Exclusive]

ShareSpark.net is a website dedicated to only free downloads with 30,000 members and growing! For your convenience it is divided into 6 main categories : Bollywood Section, Dub b ed Section, Hollywood Section, PC Applications & Games, General Discussion, Miscellaneous. Only registered members can View links, Post requests, Have profile, Search our datab ase of over 1 lac posts, and b e part of this great live community. So, Why don't you join us today : Click here to REGISTER

Send this topic

« previous next »

Print

Jatt Boys Putt Jattan De (2013) DVDRip - XviD - 1CD - Esub - [DDR-Exclusive] 1 Member and 2 Guests are view ing this topic.

2 hours ago

sσи¡иdєяsσиý Conqueror

Jatt Boys Putt Jattan De (2013) DVDRip XviD - 1CD - Esub - [DDR-Exclusive]

Publish

Elite Forces Thank You -Receive: 325 Topic Author

Posts: 1140 Topics: 318 Activity: 100% Reputation: 406 ShareSpark Member

Jatt Boys Putt Jattan De (2013) DVDRip - XviD - 1CD - Esub [DDR-Exclusive]


Movie Info --------------------------------------------------------------------------------------------------------------------------------------Movie Name : Jatt Boys Putt Jattan De Starring : Om Puri, Gaggu Gill, Jaswinder Bhalla, Sippy Gill, Karamjit Anmol, Aman Dhaliwal Directed : Simranjit Singh Hundal Producer : Sukhbir Sandhar IMDB Ratings: 8.3/10 from 37 users IMDB : Jatt Boys Putt Jattan De (2013) - IMDb Movie Release Date : 23 Aug 2013 Ripper : AnMoL Source : DVD9 My Own Collection Audio : Punjabi Subtitle : English --------------------------------------------------------------------------------------------------------------------------------------Tech Info --------------------------------------------------------------------------------------------------------------------------------------Format : AVI Format/Info : Audio Video Interleave File size : 696 MiB Duration : 2h 3mn Overall bit rate : 789 Kbps Video Codec ID/Hint : XviD Duration : 2h 3mn Bit rate : 684 Kbps Width : 640 pixels Height : 272 pixels Display aspect ratio : 2.35:1 Frame rate : 25.000 fps Color space : YUV Chroma subsampling : 4:2:0 Bit depth : 8 bits Scan type : Progressive Compression mode : Lossy Bits/(Pixel*Frame) : 0.157 Stream size : 603 MiB (87%) Audio ID : 1 Format : MPEG Audio Format version : Version 1 Format profile : Layer 3 Mode : Joint stereo Mode extension : MS Stereo Codec ID : 55 Codec ID/Hint : MP3 Duration : 2h 3mn Bit rate mode : Constant Bit rate : 96.0 Kbps Channel(s) : 2 channels Sampling rate : 44.1 KHz Compression mode : Lossy Stream size : 84.6 MiB (12%)


Full Movie

DON'T FORGET TO HIT THANX AND +REPUTE, IF.. YOU LIKE MY POST


« previous next »

Send this topic

Print

Tags: ShareSpark.net

:::: Bollywood Zone

Bollywood Movies (Original Rips)

Jatt Boys Putt Jattan De (2013) DVDRip - XviD - 1CD - Esub - [DDR-Exclusive] Jump to:

=> Bollywood Movies (Original Rips)

go

Similar topics (4) Jatt Boys Putt Jattan De(2013) 1CD Dvdrip Xvid AC3 Jainam9999 [TT] Started by тυяв σяg

Jatt Boys Putt Jattan De (2013) - 1CD - DVDRip - XviD - Esubs [DDR] Started by M Waqar Butt

Jatt Airways (2013) DVDRip - XviD - 1CD - Esub - [DDR-Exclusive] Started by Zohaib Ch

Jatt & Juliet 2 (2013) DVDRip - XviD - 1CD - [DDR-Exclusive] Started by dEVILw ARS ♥♫

ShareSpark.net

SMF 2011 | Skinmod | SimplePortal

Replies: 1 Views: 61

October 22, 2013, 09:52:03 AM by kunfu

Replies: 0 Views: 33

8 hours ago by M Waqar Butt

Replies: 0 Views: 106

October 12, 2013, 10:18:55 AM by Zohaib Ch

Replies: 4 Views: 287

August 11, 2013, 08:19:14 AM by aishw arsinghnri

File Host Service

Privacy Policy

Contact Us


Converted file 7b8b9f7c